Lincoln [2012] [BD25] [Español] - dvdfullestrenos -dvdfullestrenos.


Lincoln [2012] [BD25] [Español]

Título original: Lincoln
Año: 2012
Duración: 149 min.
País: Estados Unidos
Director: Steven Spielberg
Guión: Tony Kushner (Libro: Doris Kearns Goodwin)
Música: John Williams
Fotografía: Janusz Kaminski
Reparto: Daniel Day-Lewis, Sally Field, Tommy Lee Jones, David Strathairn, Joseph Gordon-Levitt, James Spader, Lee Pace, Hal Holbrook, Gulliver McGrath, David Costabile, Michael Stuhlbarg, Peter McRobbie, Jared Harris, Jackie Earle Haley, Joseph Cross, John Hawkes, Tim Blake Nelson, Bruce McGill, Stephen Henderson, Gloria Reuben, David Oyelowo, Jeremy Strong, Walton Goggins, Boris McGiver, Stephen Spinella, Adam Driver, Dane DeHaan, Lukas Haas
Productora: 20th Century Fox / DreamWorks SKG / Amblin Entertainment / Imagine Entertainment / The Kennedy/Marshall Company / Participant Media / Reliance Entertainment / Office Seekers Productions / Parkes/MacDonald Productions
Género: Drama

Disc Title:     Lincoln 2012 1080p Blu-ray AVC DTS-HD MA 7.1-F13@HDSpace
Protection:     AACS
BD-Java:        Yes
BDInfo:         0.5.8

PLAYLIST REPORT:

Name:                   00800.MPLS
Length:                 2:30:38.696 (h:m:s.ms)
Total Bitrate:          30,90 Mbps

(*) Indicates included stream hidden by this playlist.

VIDEO:

Codec                   Bitrate             Description     
-----                   -------             -----------     
MPEG-4 AVC Video        19364 kbps          1080p / 23,976 fps / 16:9 / High Profile 4.1

AUDIO:

Codec                           Language        Bitrate         Description     
-----                           --------        -------         -----------     
DTS-HD Master Audio             English         4160 kbps       7.1 / 48 kHz / 4160 kbps / 24-bit (DTS Core: 5.1-ES / 48 kHz / 1509 kbps / 24-bit)
DTS Audio                       Spanish         768 kbps        5.1 / 48 kHz / 768 kbps / 24-bit
SUBTITLES:

Codec                           Language        Bitrate         Description     
-----                           --------        -------         -----------     
               
Presentation Graphics           English         49,284 kbps                                   
Presentation Graphics           Spanish         40,449 kbps                                     

FILES:

Name            Time In         Length          Size            Total Bitrate   
----            -------         ------          ----            -------------   
00882.M2TS      0:00:00.000     0:01:14.074     270 354 432     29 198          
00985.M2TS      0:01:14.074     0:00:59.851     175 024 128     23 394          
00996.M2TS      0:02:13.925     2:28:24.770     34 471 981 056  30 969

En 1865, mientras la Guerra Civil Americana se acerca a su fin, el presidente Abraham Lincoln propone una enmienda que prohíba la esclavitud en los Estados Unidos. Sin embargo esto plantea un gran dilema: si la paz llega antes de que se apruebe la enmienda, el Sur tendrá poder para rechazarla y mantener la esclavitud; si la paz llega después, decenas de miles de personas seguirán muriendo en el frente. En una carrera contrarreloj para conseguir los votos necesarios, Lincoln se enfrenta a la mayor crisis de conciencia de su vida. 

http://sh.st/lHe7j

 http://sh.st/lHtVF

http://sh.st/lIHLm

http://sh.st/lHtVF

CONTRASEÑA:   KYO

O kyo

Generos: ,
Recuerda:
-NO Ofender usuarios.
-NO Spam.
-NO Malas palabras.

Deja tú comentario